Antlers 2021 720p Torrent

Antlers 2021

Health

Seeds: 43 Peers: 19

Antlers 2021

In the isolated city of Oregon, a high school teacher and her sheriff’s brother are haunted by her mysterious student, whose dark secrets lead to horrific encounters with a creature of famous ancestors who came before them.
Director:
Writers Scott Cooper:
C. Henry Chaison (screenshot), Nick Antoska (screenshot) In the isolated city of Oregon, a high school teacher and her sheriff’s brother are haunted by her mysterious student, whose dark secrets lead to horrific encounters with a creature of famous ancestors who came before them.

2c338

The Gentlemen 2019 DVDScr free movie torrent download

The Gentlemen 2019

Health

Seeds: 13 Peers: 26

The Gentlemen 2019

An American expat tries to sell his hugely lucrative marijuana empire in London, launching plots, plans, bribes and blackmail in an attempt to bring his estate back below.
Director:
Authors Guy Ritchie:
Guy Ritchie (story), John Atkinson (story) A talented American graduate from Oxford, using his unique skills and intuitiveness, he creates a marijuana empire using the estates of poor British nobles. Yes, God, Yes 2019 BDRip Movie Torrent Download However, when he tries to sell his empire to another American billionaire, a chain of events involving blackmail, fraud, chaos and murder unfolds between street thieves, Russian oligarchs, and gangsters of the Triad and reporters from the womb.
The Gentlemen 2019 Jello WEB-DL movie torrent download

Director: Guy Ritchie

Screenwriters: Guy Ritchie (screenshots), Guy Ritchie (screenshots)

Stars: Matthew McConaughey, Charlie Hunnam, Michelle Dockery

Plot / story:

An American immigrant tries to sell his hugely lucrative marijuana empire in London, launching conspiracies, plans, bribes and blackmail in an attempt to bring his estate back below.

Usually

Full Name:

Format: AVI

Format / Information: Audio Video Interleave

File size: 938 MiB

Duration: 1 53 min

Total transmission speed: 1154 kbps

Subtitles: (HI)

Video

ID: 0

Format: MPEG-4 visual

Profile format: advanced

Format settings, BVOP: 2

Format settings, QPel: No.

Format settings, GMC: no war points

Format parameters, matrix: default ()

Codec ID: XVID

Codec ID / Tip: XviD

Duration: 1 53 min

Download speed: 1013 kbps

Width: 720 pixels

Height: 304 pixels

Screen Ratio: 1

Frame rate: (24000/1001) FPS

Color space: YUV

Chromium substrate: 4: 2: 0

Bit depth: 8 pcs

Scan type: progressive

Compression mode: loss

Bits / (Pixel frame *):

Stream size: 824 MiB (88%)

Writing library: XviD 64

Sound

ID: 1

Format: MPEG Audio

Format version: Version 1

Format profile: Level 3

Codec ID: 55

Codec ID / Tip: MP3

Duration: 1 53 min

Baud rate mode: constant

Download speed: 128 kbps

Channel (s): 2 channels

Sampling rate: kHz

Compression mode: loss

Stream size: 104 MiB (11%)

Alignment: aligned with links

Interlaced, duration: 24 ms (video image)

Snapshots:

Plant as much as possible

Or at least 1: 1

Enjoy the peeps..

2c338

Wonder Woman 1984 2020 AnnaBelle FULL Free Movie Download Torrent

Wonder Woman 1984 2020

Health

Seeds: 50 Peers: 32

Wonder Woman 1984 2020

Fast forward to the 1980s, when Wonder Woman’s next big screen adventure encountered two entirely new foes: Max Lord and Cheetah. Stardust 2020 FULL Free Movie Download Torrent
Manager:
Petty Jenkins
Jeff Jones (story), Petty Jenkins (story) Fast forward to the 1980s, when Wonder Woman’s next big-screen adventure reveals two entirely new foes: Max Lord and Cheetah.
Mein Lehrer, der Krake 2020 DVD-R full movie download torrent
..

2c338

The Doorman 2020 DVDRip Crash uTorrent download free movie torrent

The Doorman 2020

Health

Seeds: 47 Peers: 40

The Doorman 2020

A woman returns from a fight and becomes a family friend in NYC, a gang of thieves planning to take family belongings, she is the one between them and their lives.
https://holyevent.
https://stainlessconcepts.com/uncategorized/the-lion-king-2019-license-free-movie-torrent/ net/2020/10/01/the-war-with-grandpa-2020-license-download-free-movie-torrent/

Director:
Writers of Ryhei Kitamura:
Fictional player (screenplay), Joe Swanson (screenplay) | A woman returns from a fight and becomes a family friend in NYC, a gang of thieves planning to take away family valuables, she is the one between them and their lives.

Type: Practical, Exciting
Director: Ryhei Kitamura
Star: Ruby Rose, Jean Reno
Summary: A woman is returning from a fight and becoming a family friend in NYC, a gang of thieves planning to take family belongings, she is the one between them and their lives.
ESSENTIAL
MEDIA
Tool = Matroska (avi)
Time = 01:37
File size = 1 GiB
– Video
Codec Information = AVC | V_MPEG4 / ISO / AVC
Resolution = 720×300
Show AR = | : 1
Minimum rate = 1 700 kb / s
Frame Rate = CFR Color Space = YUV
Production of chroma = 4: 2: 0
Encoder = x264 – base 142 r2479 dd79a61
– Sounds
Codec Description = AC-3 | A_AC3
Route = 6
Low rate = CBR 384 kb / s
Samplerate = kHz
Language = English
ACTS..

2c338

Downton Abbey 2019 tpb free movie torrent

Downton Abbey 2019

Health

Seeds: 46 Peers: 23

Downton Abbey 2019

Genre Downton: Drama
Directed by Michael Engler
Stars: Hugh Bonneville, Maggie Smith, Michelle Dockeri, Jim Carter, Laura Carmichael
Plot: Favorite Crowley and their shrewd staff prepare for the most important moment of their lives. The royal visit of the English king and queen will reveal scandal, romance and conspiracies, which will enable Downton’s future to hang in the balance.
MEDIAINFO COVERAGE
Container = Matroska (avi)
Duration = 02:02
File size = 1 GB
– Video
Information codec = AVC | V_MPEG4 / ISO / AVC
Resolution = 720×300
Display ON = | : 1
Bitrate = 1250 kbps
Frame = color space CFR = IUV
Chlorine substitution = 4: 2: 0
Coding = k264 – core 142 r2479 dd79a61
– Audio
Information codec = AC-3 | A_AC3
Channels = 6
Bitrate = CBR 384 kbps
Sample = kHz
Language = English
SCREEN. Mein Lehrer, der Krake 2020 DVD-R full movie download torrent com/uncategorized/the-lion-king-2019-license-free-movie-torrent/ »>The Lion King 2019 license Free Movie Torrent
.

2c338