The Gentlemen 2019

Health

Seeds: 13 Peers: 26

The Gentlemen 2019

An American expat tries to sell his hugely lucrative marijuana empire in London, launching plots, plans, bribes and blackmail in an attempt to bring his estate back below.
Director:
Authors Guy Ritchie:
Guy Ritchie (story), John Atkinson (story) A talented American graduate from Oxford, using his unique skills and intuitiveness, he creates a marijuana empire using the estates of poor British nobles. Yes, God, Yes 2019 BDRip Movie Torrent Download However, when he tries to sell his empire to another American billionaire, a chain of events involving blackmail, fraud, chaos and murder unfolds between street thieves, Russian oligarchs, and gangsters of the Triad and reporters from the womb.
The Gentlemen 2019 Jello WEB-DL movie torrent download

Director: Guy Ritchie

Screenwriters: Guy Ritchie (screenshots), Guy Ritchie (screenshots)

Stars: Matthew McConaughey, Charlie Hunnam, Michelle Dockery

Plot / story:

An American immigrant tries to sell his hugely lucrative marijuana empire in London, launching conspiracies, plans, bribes and blackmail in an attempt to bring his estate back below.

Usually

Full Name:

Format: AVI

Format / Information: Audio Video Interleave

File size: 938 MiB

Duration: 1 53 min

Total transmission speed: 1154 kbps

Subtitles: (HI)

Video

ID: 0

Format: MPEG-4 visual

Profile format: advanced

Format settings, BVOP: 2

Format settings, QPel: No.

Format settings, GMC: no war points

Format parameters, matrix: default ()

Codec ID: XVID

Codec ID / Tip: XviD

Duration: 1 53 min

Download speed: 1013 kbps

Width: 720 pixels

Height: 304 pixels

Screen Ratio: 1

Frame rate: (24000/1001) FPS

Color space: YUV

Chromium substrate: 4: 2: 0

Bit depth: 8 pcs

Scan type: progressive

Compression mode: loss

Bits / (Pixel frame *):

Stream size: 824 MiB (88%)

Writing library: XviD 64

Sound

ID: 1

Format: MPEG Audio

Format version: Version 1

Format profile: Level 3

Codec ID: 55

Codec ID / Tip: MP3

Duration: 1 53 min

Baud rate mode: constant

Download speed: 128 kbps

Channel (s): 2 channels

Sampling rate: kHz

Compression mode: loss

Stream size: 104 MiB (11%)

Alignment: aligned with links

Interlaced, duration: 24 ms (video image)

Snapshots:

Plant as much as possible

Or at least 1: 1

Enjoy the peeps..

Laisser un commentaire

Votre adresse de messagerie ne sera pas publiée. Les champs obligatoires sont indiqués avec *