The Big Short 2015

Health

Seeds: 15 Peers: 11

The Big Short 2015

Thx of Thx

CM8 found out the truth for the first time

Source: Big THX m8 DVD screener

Note:

DVDScreener 15

We held this title for a week after the film’s premiere gave the film a chance to play within budget, we learned from our mistakes

Declaration:

We have no plans to comment at all on recent events, but now we feel compelled.

Sorry to upset M but no hacks or anything of that sort. we got a copy of the sale from a boy down the street, no coding required. Certainly not just us.

There was another cpl movie on the internet the day before, it wasn’t made by us

So we want to share this movie with people who are not rich enough or who can’t watch all the movies chosen in the movies.

In fact these files do not represent how movies can be enjoyed in movies

As I said in our blog, please help the producers and watch all the films in the movies on the big screen, as appropriate.

Developers need money from ticket sales to cover production costs.

Eight hate movies:

Sorry for the inconvenience caused by the release of this great movie even before the cinedate began.

we never intended to hurt anyone by doing so, we never knew it would be popular very soon

Eight Hate is a thrilling, exciting and entertaining Western film that combines beautiful patterns, charming characters, beautiful documents, beautiful images and unforgettable scenes.

All of these things make The Hateful Eight a memorable film by Quentin Tarantino for its quality.

Since everyone is talking about this movie now, we don’t think the producers will waste money on cinedate, and now we’re telling you why.

We think this has really created a new kind of interesting media that’s bigger in news, radio and magazines than at StarWars, and the cost of promotion is free.

If we say that 5% of people plan to watch this movie in the movies, because of the press media we have unfortunately made, we are sure 40% of people will now watch this movie in the films.

because everyone is talking about it and everyone wants to see a movie that makes a lot of noise.

this is sure to drive movie ticket sales.

We hope this helps producers in the end, so that production costs and more can be met

We also believe that the film Hate 8 is the first prize entrant and will earn more miles than anyone else

tarantino thanks for this lovely movie

sorry it’s almost christmas we didn’t plan at all, we won’t be making another film before the date,

and we certainly haven’t reached 40 as planned, we think we’ve done a little.

Shangwe

Encoding:

The quality is the same in this case.

be very nice

Enjoy

Video: 720×288 @ bitrate 1400 2pass

Audio: Stereo AC3 English

Sample: is the content

Great

Full name:

Format: AVI

Format / Description: Video audio interacts

File size: GiB

Duration: 2h 10mn

Small total: 1,668 Kbps

Writing Application: Nandub

Library Author: Nandub build 1853 / release

Video

ID: 0

Format: Visual MPEG-4

Profile Structure: Advanced

Structure layout, BVOP: 2

Structure settings, QPel: Yes

Structure structure, GMC: No place to bend

Structure layout, Matrix: Basic options ()

Exciting approach: Bitstream Flow

IDCodec: XVID

Identification / Suggestion Codec: XviD

Duration: 2h 10mn

Minimum rate: 1,401 Kbps

Width: 720 pixels

Height: 288 pixels

Display Ratio:

Frame rate: fps

Color space: YUV

Chroma Production: 4: 2: 0

Depth: 8 pieces

Type of scan: In progress

Method of pressing: Loss

Bit / (Pixel *) Frame:

Stream size: GiB (84%)

Writing a library: XviD (UTC 2008-12-04)

Sound

ID: 1

Call: AC-3

Format / Description: Audio Code 3

Extension method: CM (full full)

Format Settings, Tolerance: Great

Codec ID: 2000

Duration: 2h 10mn

Bitrate Status: Regular

Minimum rate: 256 Kbps

Route: 2 ways

Station position: Front: L R.

Sample rate: KHz

Depth: 16 pieces

Method of pressing: Loss

Stream size: 238 MiB (15%)

Layout: Separate between the leaves

Interaction, duration: 33 ms (video frame)

Interweaving, pre-load time: 500 ms

Screen

Plan

Four high-income finance foreigners anticipating mortgage and housing

in the mid-2000s they decided to occupy the big bank because of their lack of foresight and greed.

Send

Ryan Gosling … Jared Vennett

Christian Bale … Michael Burry

Steve Carell … Mark Baum

Marisa Tomei … Cynthia Baum

Brad Pitt … Ben Rickert

Selena Gomez … Selena Gomez

Laisser un commentaire

Votre adresse de messagerie ne sera pas publiée. Les champs obligatoires sont indiqués avec *